Enable / Włącz Javascript
 Widok 
 Kategorie 
 Nitro Torrent w sieci 
 Top 10 użytkowników 
 Egzorcysta S03E01-04 [1080p.WEB-DL.H.264.AC3] [PL]

Egzorcysta S03E01-04 [1080p.WEB-DL.H.264.AC3] [PL]
Kategoria: » » » »
Dodane: 15/11/2018
Rozmiar: 2.02 GB
Uploader: Lukarusi (1)
seed(ów): 56
leecher(ów): 44
Pobrane: 111
Komentarzy: 0
Pobierz Torrent Pobierz Torrent
Pobierz [Magnet] Pobierz [Magnet]

Obserwuj
Raportuj
Info

produkcja: PL
gatunek: Komedia, Animacja
twórca: Bartosz Walaszek
czas trwania: ok. 10 min.

Opis

Egzorcysta to człowiek do którego dzwoni się w ostateczności. Na co dzień zajmuje się pracami budowlano-remontowymi. Ale w ramach powołania ? walczy z demonami, wampirami, duchami i tym podobnym cholerstwem.

Dane Techniczne

Format : Matroska
Format version : Version 4 / Version 2
File size : 498 MiB
Duration : 9 min 48 s
Overall bit rate mode : Variable
Overall bit rate : 7 101 kb/s
Encoded date : UTC 2018-11-14 20:55:44

Video
ID : 1
Format : AVC
Format/Info : Advanced Video Codec
Format profile : High@L4
Format settings : CABAC / 4 Ref Frames
Format settings, CABAC : Yes
Format settings, ReFrames : 4 frames
Codec ID : V_MPEG4/ISO/AVC
Duration : 9 min 48 s
Bit rate mode : Variable
Bit rate : 6 715 kb/s
Maximum bit rate : 12.0 Mb/s
Width : 1 920 pixels
Height : 860 pixels
Display aspect ratio : 2.25:1
Frame rate mode : Constant
Frame rate : 29.970 (30000/1001) FPS
Color space : YUV
Chroma subsampling : 4:2:0
Bit depth : 8 bits
Scan type : Progressive
Bits/(Pixel*Frame) : 0.136
Stream size : 471 MiB (95%)
Color range : Limited
Color primaries : BT.709
Transfer characteristics : BT.709
Matrix coefficients : BT.709

Audio
ID : 2
Format : AC-3
Format/Info : Audio Coding 3
Codec ID : A_AC3
Duration : 9 min 48 s
Bit rate mode : Constant
Bit rate : 384 kb/s
Channel(s) : 2 channels
Channel positions : Front: L R
Sampling rate : 48.0 kHz
Frame rate : 31.250 FPS (1536 SPF)
Bit depth : 16 bits
Compression mode : Lossy
Stream size : 26.9 MiB (5%)
Language : Polish
Service kind : Complete Main
Dostępne napisy
Brak napisów
Szczegóły torrenta
Tracker http://tracker.vanitycore.co:6969/announce
Multitracker [ Pokaż ]
Kategoria: » » » » [Zgłoś błąd]
Dodane 15-11-2018
Podziękowali:
0 użytkowników 
Podziękuj!
Pokaż / Ukryj pliki:
Nazwa pliku Rozmiar
Egzorcysta S03E01 - Wieczór kawalerski [1080p.WEB-DL.H.264.AC3] [PL].mkv 498.21 MB
Egzorcysta S03E02 - Baba Jaga [1080p.WEB-DL.H.264.AC3] [PL].mkv 541.95 MB
Egzorcysta S03E03 - Opętany [1080p.WEB-DL.H.264.AC3] [PL].mkv 513.12 MB
Egzorcysta S03E04 - Śmiertelna infekcja [1080p.WEB-DL.H.264.AC3] [PL].mkv 511.95 MB
4 plików
Brak komentarzy...
SitemapThe Picture of Dorian Gray | 12 Monkeys – HD – DUB/LEG Online | Love Live! School Idol Project