Enable / Włącz Javascript
 Widok 
 Kategorie 
 Nitro Torrent w sieci 
 Top 10 użytkowników 
 Egzorcysta S03E05-06 [1080p.WEB-DL.H.264.AC3] [PL]

Egzorcysta S03E05-06 [1080p.WEB-DL.H.264.AC3] [PL]
Kategoria: » » » »
Dodane: 29/11/2018
Rozmiar: 1.02 GB
Uploader: Lukarusi (1)
seed(ów): 0
leecher(ów): 0
Pobrane: 94
Komentarzy: 0
Pobierz Torrent Pobierz Torrent
Pobierz [Magnet] Pobierz [Magnet]

Obserwuj
Raportuj
Info

produkcja: PL
gatunek: Komedia, Animacja
twórca: Bartosz Walaszek
czas trwania: ok. 9 min.

Opis

Egzorcysta to człowiek do którego dzwoni się w ostateczności. Na co dzień zajmuje się pracami budowlano-remontowymi. Ale w ramach powołania ? walczy z demonami, wampirami, duchami i tym podobnym cholerstwem.

Dane Techniczne

Format : Matroska
Format version : Version 4 / Version 2
File size : 492 MiB
Duration : 9 min 29 s
Overall bit rate mode : Variable
Overall bit rate : 7 241 kb/s
Encoded date : UTC 2018-11-29 18:34:16

Video
ID : 1
Format : AVC
Format/Info : Advanced Video Codec
Format profile : High@L4
Format settings : CABAC / 4 Ref Frames
Format settings, CABAC : Yes
Format settings, ReFrames : 4 frames
Codec ID : V_MPEG4/ISO/AVC
Duration : 9 min 29 s
Bit rate mode : Variable
Bit rate : 6 855 kb/s
Maximum bit rate : 12.0 Mb/s
Width : 1 920 pixels
Height : 860 pixels
Display aspect ratio : 2.25:1
Frame rate mode : Constant
Frame rate : 29.970 (30000/1001) FPS
Color space : YUV
Chroma subsampling : 4:2:0
Bit depth : 8 bits
Scan type : Progressive
Bits/(Pixel*Frame) : 0.139
Stream size : 466 MiB (95%)
Default : Yes
Forced : Yes
Color range : Limited
Color primaries : BT.709
Transfer characteristics : BT.709
Matrix coefficients : BT.709

Audio
ID : 2
Format : AC-3
Format/Info : Audio Coding 3
Codec ID : A_AC3
Duration : 9 min 29 s
Bit rate mode : Constant
Bit rate : 384 kb/s
Channel(s) : 2 channels
Channel positions : Front: L R
Sampling rate : 48.0 kHz
Frame rate : 31.250 FPS (1536 SPF)
Bit depth : 16 bits
Compression mode : Lossy
Stream size : 26.1 MiB (5%)
Language : Polish
Service kind : Complete Main
Default : Yes
Forced : Yes
Dostępne napisy
Brak napisów
Szczegóły torrenta
Tracker http://agusiq-torrents.pl:6969/announce
Multitracker [ Pokaż ]
Kategoria: » » » » [Zgłoś błąd]
Dodane 29-11-2018
Podziękowali:
0 użytkowników 
Podziękuj!
Pokaż / Ukryj pliki:
Nazwa pliku Rozmiar
Egzorcysta S03E05 - All inclusive [1080p.WEB-DL.H.264.AC3] [PL].mkv 491.82 MB
Egzorcysta S03E06 - Wampizd [1080p.WEB-DL.H.264.AC3] [PL].mkv 548.26 MB
2 plików
Brak komentarzy...
SitemapDr Seuss The Lorax | QuarkXPress v10.1.0.1. | ละคร เลื่อมสลับลาย