Enable / Włącz Javascript
 Widok 
 Kategorie 
 Nitro Torrent w sieci 
 Top 10 użytkowników 
 Ucho Prezesa S04E02 (ODC. 46) - Przestroga [1080p.WEB-DL.H.264.AC3] [PL]

Ucho Prezesa S04E02 (ODC. 46) - Przestroga [1080p.WEB-DL.H.264.AC3] [PL]
Kategoria: » » » »
Dodane: 26/11/2018
Rozmiar: 853.58 MB
Uploader: Lukarusi (1)
seed(ów): 0
leecher(ów): 0
Pobrane: 333
Komentarzy: 0
Pobierz Torrent Pobierz Torrent
Pobierz [Magnet] Pobierz [Magnet]

Obserwuj
Raportuj
Info

produkcja: PL
gatunek: Komedia
twórca: Robert Górski
reżyseria: Tadeusz Śliwa
czas trwania: ok. 14 min.

Opis

Satyryczny serial o polskiej polityce rozgrywa się w wyobrażonym gabinecie prezesa, gdzie pani Basia i Mariusz troszczą się o prezesa, jak tylko potrafią. W każdym odcinku gabinet odwiedzają goście, którzy chcieliby szepnąć coś prezesowi na ucho.

Obsada

Robert Górski - Prezes Jarosław
Mikołaj Cieślak - Mariusz
Izabela Dąbrowska - pani Basia
Michał Czernecki - prezes telewizji Jacek
Robert Majewski - prezes Rady Mediów Narodowych
Paweł Koślik - prezydent
Wojciech Kalarus - Antoni, minister wojny
Grzegorz Ciągardlak - Misio
Sebastian Stankiewicz - pan Tomek, syn pani Basi
Sebastian Konrad - wicepremier, minister rozwoju
Katarzyna Żak - Jola pielęgniarka
Agnieszka Wosińska - rzecznik Beata
Adam Krawczuk - Adam od PR-u
Magdalena Smalara - Ania, minister edukacji

Dane Techniczne

Format : Matroska
Format version : Version 4 / Version 2
File size : 854 MiB
Duration : 14 min 17 s
Overall bit rate mode : Variable
Overall bit rate : 8 348 kb/s
Encoded date : UTC 2018-11-22 17:47:22

Video
ID : 1
Format : AVC
Format/Info : Advanced Video Codec
Format profile : High@L4
Format settings : CABAC / 4 Ref Frames
Format settings, CABAC : Yes
Format settings, ReFrames : 4 frames
Codec ID : V_MPEG4/ISO/AVC
Duration : 14 min 17 s
Bit rate mode : Variable
Bit rate : 7 962 kb/s
Maximum bit rate : 12.0 Mb/s
Width : 1 920 pixels
Height : 800 pixels
Display aspect ratio : 2.40:1
Frame rate mode : Constant
Frame rate : 29.970 (29970/1000) FPS
Original frame rate : 29.970 (30000/1001) FPS
Color space : YUV
Chroma subsampling : 4:2:0
Bit depth : 8 bits
Scan type : Progressive
Bits/(Pixel*Frame) : 0.173
Stream size : 814 MiB (95%)
Default : Yes
Forced : Yes
Color range : Limited
Color primaries : BT.709
Transfer characteristics : BT.709
Matrix coefficients : BT.709

Audio
ID : 2
Format : AC-3
Format/Info : Audio Coding 3
Codec ID : A_AC3
Duration : 14 min 17 s
Bit rate mode : Constant
Bit rate : 384 kb/s
Channel(s) : 2 channels
Channel positions : Front: L R
Sampling rate : 48.0 kHz
Frame rate : 31.250 FPS (1536 SPF)
Bit depth : 16 bits
Compression mode : Lossy
Stream size : 39.3 MiB (5%)
Language : Polish
Service kind : Complete Main
Default : Yes
Forced : Yes
Dostępne napisy
Brak napisów
Szczegóły torrenta
Tracker http://tracker.vanitycore.co:6969/announce
Multitracker [ Pokaż ]
Kategoria: » » » » [Zgłoś błąd]
Dodane 26-11-2018
Podziękowali:
1 użytkownik 
[ Pokaż ]
Podziękuj!
Pokaż / Ukryj pliki:
Nazwa pliku Rozmiar
Ucho Prezesa S04E02 (ODC. 46) - Przestroga [1080p.WEB-DL.H.264.AC3] [PL].mkv 853.58 MB
1 plik
Brak komentarzy...
SitemapCircus HalliGalli | 1x36 SuperCampeones 2018 | Watch movie